#TITLE:Watashi Ha Meido;
#SUBTITLE:- zebdal -;
#ARTIST:DJ sharpnel;
#TITLETRANSLIT:;
#SUBTITLETRANSLIT:;
#ARTISTTRANSLIT:;
#CREDIT:;
#BANNER:Watashi Ha Meido-bn.png;
#BACKGROUND:Watashi Ha Meido-bg.png;
#LYRICSPATH:;
#CDTITLE:cdtitle.png;
#MUSIC:Watashi Ha Meido.mp3;
#OFFSET:-0.020;
#SAMPLESTART:100.000;
#SAMPLELENGTH:12.000;
#SELECTABLE:YES;
#BPMS:0.000=240.501,372.000=200.001,372.500=140.001,373.000=60.001,373.250=120.001,373.500=140.001,374.000=200.001,374.500=260.001,375.000=319.999,375.500=379.999,376.000=390.000,377.000=240.502;
#STOPS:294.000=0.140
,294.500=0.120
,295.000=0.120
,295.500=0.120
,297.000=0.120
,297.500=0.120
,307.000=0.140
,308.500=0.120
,309.000=0.120
,309.500=0.120
,310.000=0.120
,311.500=0.120
;
#BGCHANGES:;
// cache tags:
#FIRSTBEAT:0.000;
#LASTBEAT:442.000;
#SONGFILENAME:Songs/Music V.I.P ^_^/Watashi Ha Meido/Watashi Ha Meido.sm;
#HASMUSIC:1;
#HASBANNER:1;
#MUSICLENGTH:112.143;
// end cache tags

//---------------dance-single - ----------------
#NOTES:
     dance-single:
     :
     Challenge:
     14:
     1.000,1.000,1.000,0.321,0.459,854.000,414.000,36.000,12.000,18.000:
0110
1000
0100
0010
0001
0001
0001
0001
,
0001
1000
0100
0010
0100
0100
0100
0100
,
0100
1000
0100
0010
0001
0001
0001
0001
,
0100
0100
0100
0100
0010
0010
0100
0100
,
0001
0010
0100
1000
0001
0000
0010
0000
0100
0000
0100
0000
1000
0000
0000
0000
,
0010
0010
0100
1000
1000
1000
0001
0010
,
0010
0010
0100
1000
1000
1000
0001
0000
,
0010
0010
1000
0001
0001
0001
1000
0010
,
0010
0100
0010
0100
0010
0000
1000
0000
1000
0000
1000
0000
0001
0000
0010
0000
,
0100
1000
0010
0100
0001
0001
1000
0000
,
0001
0010
0100
1000
0100
0000
1000
0010
,
0001
0010
0100
1000
0001
0010
0100
0100
,
0000
0000
0100
1000
0100
0000
0010
0000
0001
0000
0001
0000
1100
0000
0001
0000
,
1100
0000
0000
0000
1000
1000
0011
1000
,
0011
0000
0000
0000
1100
0010
0000
0010
,
1100
0000
0001
0010
1100
0000
0011
0000
,
1000
0100
0010
0001
1000
0100
0010
0001
0100
1000
0010
0001
0100
0010
1000
0100
,
0001
0010
1000
0100
0001
0010
0100
1000
0010
0100
0001
0010
1000
0100
0010
0001
,
1000
0100
0001
1000
0010
0100
0001
0010
1100
0000
0011
0000
1010
0000
0101
0000
,
0110
1001
0110
1001
0110
0000
1010
0000
,
1001
0110
1001
1001
0010
0010
0100
0010
,
0010
0100
0010
0010
1000
0100
0010
0001
,
1100
0000
0110
0000
0110
0000
0110
0000
1001
0000
0100
0000
0001
0000
0010
1000
,
0001
0100
0010
0000
0100
0000
0010
0000
1001
0000
0220
0000
0000
0000
2332
0000
,
0000
3103
0010
0001
0110
0000
0101
1100
,
0011
0011
0011
1100
0011
0000
0110
1100
,
0010
0000
0001
0000
1000
0100
1000
0000
0110
0000
0000
0000
0110
0000
0000
0000
,
0110
0000
0110
0000
0110
0110
0000
0110
,
0110
0110
0110
0110
1001
1001
1001
1001
,
1001
1001
1001
1001
1001
0000
0110
0000
,
1010
0110
0011
2020
0000
0000
3131
0110
,
1001
1100
0110
0101
1001
0011
0110
1010
,
1100
1010
0101
1010
0202
0000
1303
0010
,
1000
0100
0010
0000
1000
0000
0001
0000
1000
0000
0220
0000
0000
0000
2332
0000
,
3103
0010
0001
1000
0100
0000
1010
0000
0011
0000
0000
0000
0011
0000
0110
0000
,
0011
0011
0011
0110
1001
0000
0101
1010
,
0100
0000
0001
0100
0001
0100
0001
0000
1100
0000
0101
0000
1010
0000
1010
0000
,
0101
0000
1100
1100
0011
0000
1001
0000
,
0110
1000
0100
0010
1001
0000
0000
0000
1100
0000
0101
0000
1001
0000
0110
0000
,
1001
0110
1100
0011
0000
0011
1010
0000
,
1001
0101
1001
1001
0110
0011
1100
0110
,
1000
0011
1100
0110
1000
1000
0011
0110
,
1100
0011
1100
0000
0011
0000
0110
0000
1010
0000
0000
0000
0101
0000
0000
0000
,
1100
0000
0101
0000
1001
0110
0000
1100
,
0000
0000
0101
1010
0101
0000
1100
0000
0101
0000
0000
0000
1001
0000
1010
0000
,
0110
0000
1001
0110
1000
1000
0100
0010
,
0010
0100
0010
0100
0010
0000
0001
0000
1100
0000
0011
0000
1100
0000
0011
0000
,
1100
0011
0000
0000
1001
M00M
1001
0110
,
1000
0000
0100
0010
0100
0000
0001
0000
1100
0000
0000
0000
0101
0000
0101
0000
,
0101
0101
2002
0000
3223
0000
0000
0000
,
1330
0100
0010
0001
0010
0000
0100
0000
1001
0000
0000
0000
1001
0000
0110
0000
,
2000
0100
0010
0001
3110
0011
1010
1001
,
0110
1000
0100
0010
0101
1010
1010
0110
,
0101
1000
0100
0010
1001
0100
0100
0100
,
1001
0010
0010
0010
1001
0000
M11M
0000
,
1MM1
M11M
1MM1
M11M
1000
1000
0110
0000
,
0010
0010
0101
0010
0010
0010
1001
0100
,
0100
0100
0011
1000
1000
1000
0110
0000
,
0001
0001
1100
0001
0001
0001
1010
0100
,
0100
0010
0100
0010
1001
0000
0100
0000
0100
0000
0100
0000
0011
0000
1001
0000
,
1100
0110
0011
0110
0001
0001
0110
0000
,
1100
1001
0110
0011
1100
0000
0101
0011
,
1010
0110
1001
0110
0101
1010
1100
1100
,
0000
0000
0100
0010
0100
0000
1001
0000
0101
0000
0101
0000
1010
0000
0101
0000
,
1010
0001
0100
0011
0000
1010
1010
0101
,
1010
0000
0100
0000
0010
0000
1000
0010
1001
0100
0010
0001
0010
0100
1000
0100
,
0011
0000
1000
0000
0100
0000
0010
0000
0001
0000
1000
0000
0100
0000
0010
0000
0001
0010
0100
1000
0001
0010
0100
1000
0001
0010
0100
1000
0001
0010
0100
1000
,
0010
0001
0100
0010
0001
1000
0100
0010
0001
1000
0100
0010
0001
1000
0100
0010
0002
0000
0000
0000
1000
0000
0000
0000
0110
0000
0000
0000
0000
0000
0000
0000
,
1003
0110
0000
0001
0110
0001
0110
0000
,
1000
0110
0000
0000
1100
0011
1001
0110
,
1010
0011
1100
0101
1010
1001
0110
0000
,
1100
0011
1100
0000
0110
0000
0011
0000
0100
0000
0100
0000
0001
0000
0010
0000
,
0100
1000
0001
0010
1000
0100
0010
0010
,
1001
1001
0110
1001
1010
0110
0011
0110
,
1001
0000
0110
0000
1001
0000
0101
0000
1100
0000
0011
1100
0011
0000
1000
0000
,
0001
0000
0010
1000
0100
0000
0010
0000
1000
0000
0001
0000
0010
0000
0100
0000
,
2002
3223
0000
1330
0100
0001
0110
1010
,
1010
0101
1001
0011
1100
0011
1010
0101
,
1100
0011
0000
1001
1100
0011
1100
0011
,
1001
0110
0101
0101
1010
0000
0101
0011
,
1100
0100
0110
0010
0011
0001
1001
1000
,
1010
0000
0010
0000
0110
0000
0100
0000
0101
1010
0101
0000
1010
0000
0101
0000
,
0110
0101
1100
0101
,
1001
0000
1010
0000
0000
0000
1100
0000
0000
0000
0110
1001
0110
0000
1010
0000
,
0011
0000
0011
1100
0011
0000
1010
0101
,
1000
0000
0001
0000
0100
0000
0010
0000
1000
0100
0010
0001
0100
0000
0010
0000
,
1001
1010
0110
0011
1001
0110
0000
0000
,
1010
0000
0000
0000
1100
0000
0011
0000
1000
0000
0001
0010
0100
0000
0010
0000
,
0101
0000
0101
0101
0101
0101
2002
0000
,
3223
0000
0000
0000
0000
0000
0000
0000
1330
0100
0010
0001
0100
0000
1000
0000
,
0110
0000
1001
1001
1001
1000
0100
0010
,
0001
0001
0001
0001
0001
1000
0100
0001
,
0010
0010
0010
0010
0010
1000
0100
0010
,
2002
0000
0000
0000
0000
3103
0010
0001
1000
0100
0010
0001
1000
0100
0010
0001
,
1000
0100
0010
0001
0110
0000
1001
0000
0110
0000
0101
0000
0000
0000
0110
0000
,
0000
1100
0000
0011
0000
1001
1100
0000
,
0101
0000
0000
0000
1010
0100
0011
0000
0110
0000
0011
0000
0000
0000
1100
0000
,
1010
0101
0000
1001
0110
0001
0000
1000
,
0000
0000
0100
0010
0100
0000
0001
0000
1000
0000
0110
0000
1001
0000
0110
0000
,
1001
0110
1001
0000
0000
0101
0000
0110
,
1100
0000
0010
0000
0000
1000
0100
0000
0001
0000
0110
0000
0000
0000
1010
0000
,
0101
1010
1010
2002
0000
3223
0000
0000
,
0000
0000
1331
0110
1001
0000
0101
0000
1100
0000
0110
0000
0000
0000
1010
0000
,
0000
0011
0000
0110
0000
1001
0101
0000
,
1010
0000
0000
0000
0011
1000
0110
0000
1100
0000
0011
0000
0000
0000
0011
0000
,
1100
0011
0000
0110
0101
1000
0010
0100
,
1000
0000
0001
0010
0100
0000
1000
0000
0010
0000
0101
0000
1010
0000
0101
0000
,
1010
0101
1010
0000
0000
0110
0000
0110
,
1001
0000
0000
0000
0000
0100
1000
0000
0010
0000
1001
0000
0000
0000
0110
0000
,
1100
0101
1010
0220
0000
2332
0000
0000
,
0000
0000
3003
0000
;
